OnePlus One 4k DCI Nature Camera Test (Unprocessed)

I found a nice spot to test out the OnePlus One’s 4k DCI mode. The Original File was 56 seconds with a bit rate of 64.7 mbps and stereo audio at 192 kbps at a sample rate of 48kHz. The file was 433 mb and has a resolution of 4096×2160 with a frame rate of 24 fps. I have included the full information about the video below it. Enjoy!

Format : MPEG-4
Format profile : Base Media
Codec ID : isom
File size : 434 MiB
Duration : 56s 234ms
Overall bit rate : 64.7 Mbps
Encoded date : UTC 2014-07-27 17:52:02
Tagged date : UTC 2014-07-27 17:52:02

Video
ID : 1
Format : AVC
Format/Info : Advanced Video Codec
Format profile : Baseline@L5.1
Format settings, CABAC : No
Format settings, ReFrames : 1 frame
Format settings, GOP : M=1, N=24
Codec ID : avc1
Codec ID/Info : Advanced Video Coding
Duration : 55s 936ms
Bit rate : 64.8 Mbps
Width : 4 096 pixels
Height : 2 160 pixels
Display aspect ratio : 1.896
Frame rate mode : Variable
Frame rate : 24.000 fps
Minimum frame rate : 23.841 fps
Maximum frame rate : 24.181 fps
Color space : YUV
Chroma subsampling : 4:2:0
Bit depth : 8 bits
Scan type : Progressive
Bits/(Pixel*Frame) : 0.305
Stream size : 432 MiB (100%)
Title : VideoHandle
Language : English
Encoded date : UTC 2014-07-27 17:52:02
Tagged date : UTC 2014-07-27 17:52:02

Audio
ID : 2
Format : AAC
Format/Info : Advanced Audio Codec
Format profile : LC
Codec ID : 40
Duration : 56s 234ms
Source duration : 56s 241ms
Bit rate mode : Constant
Bit rate : 192 Kbps
Nominal bit rate : 96.0 Kbps
Channel(s) : 2 channels
Channel positions : Front: L R
Sampling rate : 48.0 KHz
Compression mode : Lossy
Stream size : 1.29 MiB (0%)
Source stream size : 1.29 MiB (0%)
Title : SoundHandle
Language : English
Encoded date : UTC 2014-07-27 17:52:02
Tagged date : UTC 2014-07-27 17:52:02
mdhd_Duration : 56234

 


Leave a Reply

Fill in your details below or click an icon to log in:

WordPress.com Logo

You are commenting using your WordPress.com account. Log Out /  Change )

Google+ photo

You are commenting using your Google+ account. Log Out /  Change )

Twitter picture

You are commenting using your Twitter account. Log Out /  Change )

Facebook photo

You are commenting using your Facebook account. Log Out /  Change )

Connecting to %s